Devyatayev 2021 1080p KION WEB-DL AAC2.0 H 264-EniaHD

Torrent Details


Devyatayev 2021 1080p KION WEB-DL AAC2.0 H 264<span style=color:#fc9c6d>-EniaHD</span>

NAME
Devyatayev 2021 1080p KION WEB-DL AAC2.0 H 264-EniaHD.torrent
CATEGORY
Movies
INFOHASH
7d3ad33dfedd329c4cca04a78456ced2f5847fce
SIZE
4.6 GB in 1 file
ADDED
Uploaded on 10-06-2021 by our crawler pet called "Spidey".
SWARM
0 seeders & 0 peers
RATING
No votes yet.

Please login to vote for this torrent.


Description

Информация о фильме

Название: Девятаев

Год выхода: 2021

Жанр: военный, биография, боевик, история, драма

Режиссёры: Тимур Бекмамбетов, Сергей Трофимов

В ролях: Павел Прилучный, Павел Чинарёв, Алексей Филимонов, Евгений Серзин, Александр Лыков, Дмитрий Лысенков, Дарья Златопольская, Туре Рифенштайн, Патрик Йосвиг, Максим Ханжов, Олег Чугунов, Никита Кологривый, Тимофей Трибунцев, Антон Ксенев, Евгений Санников, Александр Петров, Денис Козинец, Алексей Красноцветов, Антон Бабичев, Татьяна Полонская, Евгений Волошин, Артём Драчёв, Ярослав Кузнецов



О фильме:

Лето 1944 года. Советские войска ведут наступление, но враг еще очень силен. Летчик-истребитель Михаил Девятаев попадает в плен. Ему предстоит сделать выбор — вернуться в небо, продолжив войну на стороне врага, или отправиться в концлагерь на остров Узедом. Отчаянный ас Девятаев выбирает третье — побег. Но с засекреченного острова, где идут испытания немецких крылатых ракет, нельзя убежать. Зато можно улететь — на аэродроме стоит новейший вражеский бомбардировщик с «оружием возмездия» Третьего рейха на борту. Улететь — и совершить самый дерзкий побег в военной истории.







Страна: Россия

Студия: Военфильм, Базелевс Продакшн

Продолжительность: 01:45:56

Перевод: Не требуется



Файл

Контейнер: MKV

Качество: WEB-DL 1080p | KION

Видео: MPEG-4 (AVC), 1920х1080 (16:9), 25 fps, ~ 6144 kbps, 0.119 bit/pixel

Аудио: AAC, 48 kHz, 2 ch, 128 Kbps



MediaInfoGeneral

Unique ID : 66797463041311392926074406533862810092 (0x3240B932946C2F594A4086890B9461EC)

Complete name : Devyatayev.2021.1080p.KION.WEB-DL.AAC2.0.H.264-EniaHD.mkv

Format : Matroska

Format version : Version 4

File size : 4.61 GiB

Duration : 1 h 45 min

Overall bit rate : 6 229 kb/s

Writing application : mkvmerge v57.0.0 ('Till The End') 64-bit

Writing library : libebml v1.4.2 + libmatroska v1.6.4



Video

ID : 1

Format : AVC

Format/Info : Advanced Video Codec

Format profile : [email protected]

Format settings : 2 Ref Frames

Format settings, CABAC : No

Format settings, Reference frames : 2 frames

Format settings, GOP : M=1, N=25

Codec ID : V_MPEG4/ISO/AVC

Duration : 1 h 45 min

Bit rate mode : Constant

Bit rate : 6 144 kb/s

Width : 1 920 pixels

Height : 1 080 pixels

Display aspect ratio : 16:9

Frame rate mode : Constant

Frame rate : 25.000 FPS

Color space : YUV

Chroma subsampling : 4:2:0

Bit depth : 8 bits

Scan type : Progressive

Bits/(Pixel*Frame) : 0.119

Stream size : 4.51 GiB (98%)

Default : Yes

Forced : No



Audio

ID : 2

Format : AAC LC

Format/Info : Advanced Audio Codec Low Complexity

Codec ID : A_AAC-2

Duration : 1 h 45 min

Bit rate : 128 kb/s

Channel(s) : 2 channels

Channel layout : L R

Sampling rate : 48.0 kHz

Frame rate : 46.875 FPS (1024 SPF)

Compression mode : Lossy

Stream size : 97.0 MiB (2%)

Language : Russian

Default : Yes

Forced : No

Скриншоты



Релиз от:

Discussion

Comments 0

Post Your Comment

Files in this torrent

FILENAMESIZE
Devyatayev.2021.1080p.KION.WEB-DL.AAC2.0.H.264-EniaHD.mkv4.6 GB

Alternative Torrents for 'Devyatayev KION AAC'.

There are no alternative torrents found.
Remove Ads : ON
Remove Ads : OFF